<?xml version="1.0" standalone="no"?>
<!DOCTYPE svg PUBLIC "-//W3C//DTD SVG 1.1//EN" "http://www.w3.org/Graphics/SVG/1.1/DTD/svg11.dtd" >
<!--
2013-9-15: Created.
-->
<svg xmlns="http://www.w3.org/2000/svg">
<metadata>
Created by FontForge 20120731 at Sun Sep 15 15:49:39 2013
 By Tyler Wanlass
Created by Tyler Wanlass with FontForge 2.0 (http://fontforge.sf.net)
</metadata>
<defs>
<font id="picto-foundry-nature" horiz-adv-x="512" >
  <font-face 
    font-family="picto-foundry-nature"
    font-weight="500"
    font-stretch="normal"
    units-per-em="512"
    panose-1="2 0 6 3 0 0 0 0 0 0"
    ascent="448"
    descent="-64"
    bbox="-0.569428 -64.0405 512.25 448.657"
    underline-thickness="25.6"
    underline-position="-51.2"
    unicode-range="U+F100-F135"
  />
    <missing-glyph />
    <glyph glyph-name="uniF100" unicode="&#xf100;" horiz-adv-x="428" 
d="M425 253l3 -11h-38v-7c-6 -126 -52 -200 -90 -240c-42 -44 -81 -57 -83 -58l-3 -1l-3 1c-2 1 -164 55 -174 298v7h-37l3 11c19 78 116 116 202 118c1 39 23 77 60 77v-18c-25 0 -41 -30 -42 -59c86 -2 183 -40 202 -118zM214 -45c22 8 148 68 158 281v6h-317v-6
c5 -120 49 -190 85 -228c33 -34 65 -49 74 -53zM381 260h23c-16 37 -70 93 -190 93c-56 0 -163 -20 -190 -93h22h10h316h9z" />
    <glyph glyph-name="uniF101" unicode="&#xf101;" horiz-adv-x="454" 
d="M443 129l11 -93l-36 16c-37 -69 -109 -116 -192 -116s-154 47 -191 115l-35 -15l11 93l75 -56l-35 -15c33 -59 94 -101 166 -104v316h-42c-4 -11 -14 -18 -26 -18c-15 0 -27 12 -27 27s12 27 27 27c12 0 22 -7 26 -18h42v43c-28 4 -50 29 -50 58c0 32 27 59 59 59
s59 -27 59 -59c0 -29 -22 -54 -50 -58v-43h43c4 11 13 18 25 18c15 0 27 -12 27 -27s-12 -27 -27 -27c-12 0 -21 7 -25 18h-43v-316c72 3 134 45 166 105l-33 14zM186 389c0 -22 18 -41 40 -41s41 19 41 41s-19 41 -41 41s-40 -19 -40 -41z" />
    <glyph glyph-name="uniF102" unicode="&#xf102;" horiz-adv-x="504" 
d="M456 362c47 -36 48 -36 48 -42c-3 -86 -110 -137 -115 -139l-13 -6v14c0 31 -12 53 -27 81c-1 1 -1 3 -2 4c-38 -43 -192 -220 -275 -332l-5 -6l-19 2c-26 11 -44 61 -46 67l-2 6l5 4c126 107 234 246 273 310c8 14 14 24 18 30l-3 6l-2 5l59 82l7 -7
c20 -19 66 -54 99 -79zM59 -45c87 118 252 305 279 336l-31 48c-4 -6 -9 -14 -14 -23c-41 -66 -146 -203 -272 -311c7 -18 20 -44 32 -50h6zM393 203c26 15 87 57 92 114c-6 5 -22 18 -39 31c-32 24 -71 53 -94 73l-40 -56l44 -71c3 -5 5 -10 8 -15c13 -25 26 -48 29 -76z
" />
    <glyph glyph-name="uniF103" unicode="&#xf103;" horiz-adv-x="508" 
d="M483 232c29 -79 40 -213 -7 -251c-7 -6 -17 -11 -30 -11c-7 0 -15 1 -25 5c-6 -23 -27 -39 -52 -39h-225c-25 0 -47 17 -53 41c-11 -5 -21 -7 -29 -7c-13 0 -23 5 -30 11c-47 38 -36 172 -7 251c13 35 34 75 65 76v10l-51 5v125h435v-122l-51 -7v-11c29 -5 48 -43 60 -76
zM256 134c19 0 34 -15 34 -34v-7h115v224h-297v-224h115v7c0 19 14 34 33 34zM272 100c0 9 -7 16 -16 16s-15 -7 -15 -16v-33c0 -9 6 -15 15 -15s16 6 16 15v33zM185 335h140v95h-140v-95zM456 341v89h-113v-95h70zM57 340l42 -5h69v95h-111v-90zM43 -5c11 -9 27 -8 47 2
v294c-16 -1 -34 -25 -48 -65c-29 -80 -35 -201 1 -231zM369 -46c18 0 32 13 35 30h-1l1 3c0 1 1 2 1 3v85h-115v-8c0 -19 -15 -33 -34 -33s-33 14 -33 33v8h-115v-85c0 -20 16 -36 36 -36h225zM465 -5c36 30 30 151 1 231c-13 36 -28 59 -43 64v-296c17 -8 32 -8 42 1z" />
    <glyph glyph-name="uniF104" unicode="&#xf104;" 
d="M397 -25h115v-19h-512v19h377l-78 220l-193 -73l-1 12c-5 90 44 173 124 212c-4 3 -6 9 -6 14c0 10 9 18 19 18s18 -8 18 -18v-1c22 7 45 10 68 10c67 0 132 -31 174 -83l8 -10l-194 -74zM479 284c-38 42 -94 67 -151 67c-15 0 -30 -2 -44 -5c49 -18 85 -49 110 -94z
M219 319c-59 -37 -95 -101 -96 -171l100 38c-12 58 -10 105 -4 133zM70 309c-38 0 -70 31 -70 69s32 70 70 70s70 -32 70 -70s-32 -69 -70 -69zM70 429c-28 0 -51 -23 -51 -51s23 -51 51 -51s51 23 51 51s-23 51 -51 51z" />
    <glyph glyph-name="uniF105" unicode="&#xf105;" 
d="M59 200c0 -25 19 -45 44 -45c7 -7 14 -15 16 -17c-5 -1 -10 -1 -15 -1c-35 0 -63 28 -63 63c0 10 3 20 7 29c5 -4 8 -8 9 -9c0 0 2 -2 5 -4c-2 -5 -3 -10 -3 -16zM363 200c0 -25 19 -45 44 -45c7 -7 13 -15 15 -17c-5 -1 -9 -1 -14 -1c-35 0 -63 28 -63 63
c0 10 3 20 7 29c5 -4 8 -8 9 -9c0 0 2 -2 5 -4c-2 -5 -3 -10 -3 -16zM494 258c11 -17 18 -36 18 -58c0 -57 -47 -105 -104 -105s-105 48 -105 105c0 3 1 5 1 8v12c-7 2 -28 8 -49 8s-41 -6 -47 -8v-12c0 -3 1 -5 1 -8c0 -57 -48 -105 -105 -105s-104 48 -104 105
c0 22 7 41 18 58c12 34 71 190 120 190c42 0 64 -50 71 -71c11 3 31 7 46 7c16 0 36 -4 48 -7c8 20 31 71 71 71c11 0 53 -14 120 -190zM374 430c-29 0 -50 -46 -56 -65l3 -108c19 28 51 47 87 47c20 0 39 -6 55 -16c-31 74 -70 142 -89 142zM300 359c-11 3 -31 7 -45 7
s-33 -5 -43 -7l-2 -72c10 3 28 7 45 7c19 0 37 -4 47 -7zM138 430c-15 0 -51 -44 -90 -142c16 10 35 16 56 16c36 0 68 -19 87 -47l3 108c-3 9 -21 65 -56 65zM104 113c44 0 80 33 86 75v20c-4 44 -41 78 -86 78c-48 0 -86 -38 -86 -86s38 -87 86 -87zM255 246
c19 0 37 -4 48 -7v29c-4 1 -26 8 -48 8c-19 0 -37 -5 -45 -7l-1 -30c10 3 27 7 46 7zM408 113c48 0 86 39 86 87s-38 86 -86 86c-45 0 -82 -34 -86 -78v-20c6 -42 42 -75 86 -75zM237 331c0 12 5 18 17 18s18 -6 18 -18s-6 -18 -18 -18s-17 6 -17 18z" />
    <glyph glyph-name="uniF106" unicode="&#xf106;" 
d="M510 436c-1 -7 -35 -177 -163 -304c-4 -4 -7 -8 -11 -11l22 -74c13 -1 26 -13 31 -31c6 -21 -1 -42 -16 -46s-32 9 -38 30c-5 16 -2 32 6 41l-20 67c-123 -108 -271 -138 -278 -139l-13 -3l2 13c1 7 25 175 143 302l-102 40c-8 -10 -27 -13 -45 -6c-21 8 -33 26 -27 40
s27 20 48 12c15 -6 26 -18 28 -29l112 -43c128 126 304 150 311 151l12 2zM397 222c58 86 84 172 92 204c-33 -6 -124 -28 -212 -84zM136 200c-56 -87 -78 -178 -84 -211c32 8 119 34 204 91zM316 127l-31 101l18 5l27 -92c1 1 3 2 4 3c20 20 38 42 53 63l-125 125
c-19 -13 -38 -28 -55 -45l61 -24l-6 -16l-69 27c-18 -19 -33 -39 -47 -59l124 -124c15 11 31 23 46 36z" />
    <glyph glyph-name="uniF107" unicode="&#xf107;" 
d="M492 128c25 -27 22 -51 15 -66c-19 -43 -95 -73 -151 -73v0c-19 0 -34 4 -44 11c-15 10 -29 24 -41 41c4 -15 6 -28 6 -39c0 -12 -4 -24 -13 -33c-15 -16 -43 -26 -71 -26c-22 0 -39 6 -51 17c-25 23 -9 70 5 100c-15 -7 -26 -10 -31 -5c-4 4 -4 13 2 26
c-19 -9 -44 -19 -66 -19v0c-15 0 -27 5 -35 14c-21 23 -21 67 -8 97c11 24 28 39 48 39h2c11 0 25 -3 40 -7c-17 12 -32 27 -42 42c-21 32 -9 102 16 148c19 34 43 53 68 53c15 0 30 -7 45 -20c88 -81 82 -152 76 -193c5 3 10 6 14 8c3 12 6 21 8 27c6 20 6 19 -5 48l-4 9
l17 7l4 -9c13 -33 13 -36 6 -61c-1 -5 -3 -10 -5 -17c3 0 5 -1 7 -3c1 -1 2 -3 3 -5c6 2 12 3 16 4c25 7 27 7 60 -6l9 -3l-7 -17l-8 3c-29 11 -29 11 -49 5c-6 -2 -13 -3 -23 -6c-2 -5 -5 -10 -8 -16c11 2 25 4 41 4c56 0 106 -26 154 -79zM72 257c26 -41 98 -73 118 -81
l3 3c18 18 35 32 49 43c0 3 0 6 1 9c6 39 17 105 -69 184c-11 10 -22 15 -33 15c-25 0 -43 -28 -52 -44c-24 -44 -32 -106 -17 -129zM134 110l3 3c10 15 24 32 40 49c-26 10 -86 31 -119 32h-1c-17 0 -27 -20 -31 -28c-12 -28 -10 -63 4 -78c5 -5 12 -8 22 -8
c32 0 75 26 82 30zM251 -19c6 6 8 13 8 20c-1 34 -23 94 -32 119c-16 -15 -31 -27 -45 -38l-6 -5c-13 -21 -44 -84 -22 -104c8 -8 22 -12 39 -12c23 0 46 8 58 20zM491 69c7 15 3 31 -12 47c-45 49 -91 73 -141 73c-16 0 -30 -2 -41 -4c-4 -1 -8 -2 -11 -2l-8 -8
c-10 -13 -22 -26 -37 -41c7 -17 39 -92 81 -119c7 -5 19 -8 34 -8c50 0 120 27 135 62z" />
    <glyph glyph-name="uniF108" unicode="&#xf108;" horiz-adv-x="506" 
d="M390 284c26 -42 26 -127 -1 -168c-29 -44 -62 -60 -98 -68c-11 30 -20 40 -28 40c-17 0 -29 -43 -29 -43s-132 39 -139 127c-5 64 39 89 39 89s-18 -41 11 -45h3c25 0 21 48 21 48s-5 25 -12 53s24 48 24 48s-12 -42 26 -42h3c42 2 41 55 36 83s-24 42 -24 42
s44 -9 69 -62s10 -68 14 -110c2 -23 13 -32 24 -32c9 0 18 6 21 15c7 19 5 25 3 39s-12 31 -12 31s28 -11 49 -45zM373 127c23 34 23 111 1 147l-1 1c-1 -6 -2 -14 -5 -23c-6 -16 -22 -27 -39 -27s-39 13 -43 49c-2 16 -1 27 0 38c1 20 3 34 -12 65l-6 12
c1 -19 -1 -45 -16 -64c-10 -13 -24 -20 -41 -21h-4c-13 0 -22 4 -29 9c6 -24 9 -45 9 -45l1 -1v-1c1 -6 2 -39 -14 -57c-7 -8 -16 -12 -26 -12h-6c-10 1 -18 6 -24 13c-3 -10 -5 -22 -4 -37c4 -56 75 -90 108 -103c7 18 21 37 41 37c19 0 31 -17 40 -36c23 7 47 22 70 56z
M31 59l-4 -19l475 -104l4 19zM0 -45l4 -19l479 104l-4 19z" />
    <glyph glyph-name="uniF109" unicode="&#xf109;" horiz-adv-x="439" 
d="M329 374c25 0 110 -43 110 -217s-85 -221 -110 -221h-219c-25 0 -110 53 -110 221s85 217 110 217h73v11h-4c-17 0 -31 14 -31 31s14 32 31 32h80c17 0 32 -15 32 -32s-15 -31 -32 -31h-1v-11h71zM166 416c0 -7 6 -13 13 -13h80c7 0 14 6 14 13s-7 14 -14 14h-80
c-7 0 -13 -7 -13 -14zM201 385v-11h38v11h-38zM110 355c-9 0 -60 -22 -82 -109h383c-21 88 -70 109 -82 109h-219zM329 -46c11 0 62 24 83 116h-384c21 -90 73 -116 82 -116h219zM415 87c3 20 6 43 6 70s-3 50 -6 70h-390v5c-4 -21 -7 -46 -7 -75s3 -53 7 -75v6h390v-1z" />
    <glyph glyph-name="uniF10A" unicode="&#xf10a;" horiz-adv-x="405" 
d="M398 203c15 -36 5 -81 -25 -113c-24 -26 -58 -41 -92 -41v0c-27 0 -48 9 -62 25c6 -72 17 -115 26 -120c0 0 0 1 -1 1v-19c-30 0 -41 91 -45 164c-7 -31 -37 -51 -76 -51c-34 0 -68 15 -92 41c-30 33 -40 81 -24 119c9 22 25 37 44 43c-20 6 -35 21 -44 42
c-15 36 -6 80 24 112c24 26 58 42 92 42c40 0 70 -21 76 -53l3 -21c1 7 3 14 4 21c6 32 35 53 75 53c34 0 68 -16 92 -42c30 -33 40 -81 24 -119c-9 -22 -24 -37 -43 -43c20 -6 35 -20 44 -41zM224 392c-7 -37 -10 -90 -12 -120v-13c12 0 33 -1 57 -1c25 0 48 1 67 2
c20 1 36 13 44 34c11 27 9 68 -20 100c-20 22 -50 35 -79 35c-30 0 -53 -14 -57 -37zM24 301c8 -20 24 -32 45 -33l123 -8c0 3 1 7 1 12c-2 30 -5 83 -12 120c-4 23 -28 37 -58 37c-29 0 -58 -13 -78 -35c-25 -27 -33 -64 -21 -93zM181 105c7 37 10 89 12 119
c0 5 -1 10 -1 14c-12 0 -32 1 -56 1c-25 0 -48 -1 -67 -2c-20 -1 -36 -14 -44 -35c-11 -27 -9 -67 20 -99c20 -22 49 -36 78 -36c30 0 54 15 58 38zM360 103c25 27 33 64 21 93c-8 20 -24 32 -45 33l-124 8v-13c1 -10 1 -22 2 -35v0v-5c2 -26 6 -56 10 -79s27 -38 57 -38v0
c29 0 59 14 79 36z" />
    <glyph glyph-name="uniF10B" unicode="&#xf10b;" 
d="M222 203c3 9 10 16 19 20l109 67l-68 -112l-1 -2l-3 3zM281 176c-4 -7 -12 -12 -20 -14zM222 203v0l39 -41v0l-107 -67zM462 347c-3 0 -7 0 -10 1c34 -43 53 -96 53 -155c0 -140 -112 -253 -252 -253s-253 113 -253 253s113 252 253 252c61 0 115 -20 159 -56
c-1 3 -1 6 -1 9c0 28 23 50 51 50s50 -22 50 -50s-22 -51 -50 -51zM462 430c-18 0 -32 -14 -32 -32s14 -32 32 -32s32 14 32 32s-14 32 -32 32zM253 -41c129 0 234 105 234 234s-105 234 -234 234s-235 -105 -235 -234s106 -234 235 -234z" />
    <glyph glyph-name="uniF10C" unicode="&#xf10c;" horiz-adv-x="335" 
d="M334 -52c2 -5 0 -9 -5 -11c-1 0 -2 -1 -3 -1c-4 0 -8 2 -9 6l-85 227h-56v-22c0 -5 -4 -9 -9 -9s-9 4 -9 9v22h-56l-84 -226c-2 -5 -7 -8 -12 -6s-7 7 -5 12l82 220h-59c-5 0 -9 4 -9 9s4 9 9 9h66l31 83c-13 12 -21 30 -21 49c0 34 25 62 58 66v1v53c0 5 4 9 9 9
s9 -4 9 -9v-53v-1c33 -4 58 -32 58 -66c0 -19 -8 -37 -21 -49l31 -83h66c5 0 9 -4 9 -9s-4 -9 -9 -9h-59zM167 342l-25 -66c7 -4 16 -6 25 -6s18 2 25 6zM216 319c0 24 -17 43 -39 48l29 -78c6 8 10 19 10 30zM118 319c0 -11 4 -22 10 -30l29 78c-22 -5 -39 -24 -39 -48z
M176 187h49l-27 72c-9 -5 -20 -8 -31 -8s-22 3 -31 8l-27 -72h49v27c0 5 4 10 9 10s9 -5 9 -10v-27z" />
    <glyph glyph-name="uniF10D" unicode="&#xf10d;" 
d="M508 207l4 -18c-1 0 -14 -3 -29 -2c-4 -1 -14 -15 -20 -23c-11 -14 -22 -27 -33 -32c-13 -6 -28 2 -44 13c-16 10 -33 22 -52 22c2 -1 4 -3 6 -4c19 -12 20 -23 22 -33c2 -9 3 -18 22 -31c37 -26 69 -8 69 -8l9 -16c-1 -1 -16 -9 -37 -9c-15 0 -32 5 -51 18
c-25 18 -28 32 -30 43c-1 8 -2 13 -14 21c-13 8 -18 8 -18 8c1 0 2 0 2 1h-2c-14 -16 -22 -49 -25 -74l13 -147h-81l12 140c-10 31 -29 71 -47 72h-21c-17 0 -37 -1 -57 1c2 -2 5 -3 8 -2c2 0 3 1 3 1s-3 -3 -10 -15c-10 -17 -39 -20 -59 -20c-9 0 -16 1 -19 1l2 18
c21 -2 54 0 60 10c2 3 3 7 5 9c-30 5 -57 18 -60 49c-2 23 -8 29 -11 30c-5 2 -11 -1 -11 -1l-10 15c5 3 18 7 29 2c12 -6 20 -20 22 -44c3 -30 43 -35 80 -36c-5 7 -9 16 -12 29c-11 40 -34 50 -35 50l6 17c1 -1 34 -12 47 -62c8 -30 17 -32 17 -32h-2l1 -2h6h22
c27 -1 46 -38 57 -65c2 63 -5 147 -32 162c-15 8 -31 15 -47 21c-7 3 -15 6 -22 9c-11 -1 -63 -4 -91 -4c-38 0 -49 58 -50 60l18 4s10 -46 32 -46c15 0 39 1 58 2c-14 9 -24 20 -30 36c-12 35 9 53 21 64c3 3 6 7 7 8v-1h19c0 -8 -7 -15 -14 -21c-12 -11 -24 -21 -16 -44
c9 -25 41 -37 74 -50l24 -9c-2 7 -5 17 -11 29c-7 14 -8 26 -4 35c5 10 15 13 16 13l2 -9l2 -9s-2 0 -3 -3c-1 -2 -2 -9 3 -20c11 -22 14 -38 15 -46l6 -3c18 -10 28 -35 34 -64c0 49 0 97 -3 116c-3 21 -15 35 -25 47c-11 13 -22 26 -14 42c12 26 38 28 39 28l2 -18
c-1 0 -17 -2 -25 -18c-2 -5 2 -10 12 -22c11 -13 25 -30 29 -56c4 3 8 6 12 10c6 5 5 8 1 22c-2 8 -5 16 -5 26c0 7 3 14 8 19c13 13 40 14 43 14l-1 -19c-5 0 -22 -1 -29 -8c-2 -2 -2 -4 -2 -6c0 -7 1 -14 3 -21c4 -13 8 -28 -7 -41c-9 -8 -16 -14 -21 -18
c1 -19 1 -45 1 -73c5 19 10 26 14 30c10 9 28 12 49 16c45 8 77 17 76 49c0 29 5 48 18 59s30 9 43 6l-4 -17c-10 2 -20 3 -27 -3c-8 -7 -12 -23 -12 -45c1 -47 -46 -58 -83 -65c1 -1 3 -2 4 -3c14 -14 23 -18 45 -26l3 -1c46 -18 62 15 64 19l16 -8s-15 -35 -55 -35
c-9 0 -20 2 -32 7l-3 1c-23 9 -35 14 -51 30c-9 9 -14 11 -15 11c-11 -2 -20 -4 -24 -8c-10 -9 -18 -72 -22 -139c7 30 20 61 47 67c29 6 54 -10 74 -23c9 -6 22 -15 26 -13c7 3 17 17 26 28c13 17 24 30 36 29c13 -1 24 2 24 2z" />
    <glyph glyph-name="uniF10E" unicode="&#xf10e;" 
d="M256 448c141 0 256 -115 256 -256s-115 -256 -256 -256s-256 115 -256 256s115 256 256 256zM492 170c1 7 1 15 1 22c0 49 -15 94 -40 132c-8 -39 -47 -123 -14 -129c1 1 33 -17 53 -25zM207 317c6 -3 -23 5 -28 28c-24 -1 -40 -10 -47 -28c11 -2 20 -5 23 -14
c-3 -53 -44 -112 -9 -159c6 11 16 -6 14 -28c32 -13 67 -48 93 -51c-9 17 -27 25 -32 47c-2 -6 -6 -10 -14 -10c-8 4 -16 9 -14 24c7 24 56 15 65 0c-3 31 19 69 51 79c2 20 10 11 19 18c-18 19 -38 38 -66 47c-2 -15 6 -40 -9 -42c2 20 -23 15 -23 33c3 15 21 15 23 32
c-17 2 -40 36 -46 24zM253 340c1 -9 -5 -11 -4 -19c11 -11 10 6 18 10c21 -14 31 -63 61 -52c-13 10 1 34 0 47c-17 17 -45 22 -75 14zM253 23c8 -13 33 -36 33 -36c0 -11 -3 -21 -7 -31c50 5 97 26 133 57c-3 2 -6 4 -9 5c-2 1 0 8 5 13l-1 -1c-3 17 26 28 5 35
c-40 -21 -98 26 -140 5c-2 -20 -16 -29 -19 -47zM374 398c-35 20 -75 31 -118 31c-34 0 -66 -6 -95 -19h10c8 0 -20 -31 -25 -47c8 2 157 59 200 14c0 -8 6 14 28 21z" />
    <glyph glyph-name="uniF10F" unicode="&#xf10f;" horiz-adv-x="449" 
d="M114 448l125 -444h-115v-68h-19v68h-105zM153 241l-15 54h-44l-14 -54h73zM158 222h-83l-15 -58h115zM180 145h-125l-14 -55h154zM115 376l-16 -62h33zM37 74l-13 -51h190l-14 49h-163v2zM449 25h-83v-52h-19v52h-76l85 324zM389 167l-12 41h-39l-11 -41h62zM394 148h-71
l-12 -42h95zM357 278l-14 -51h28zM307 87l-12 -43h129l-13 43h-104z" />
    <glyph glyph-name="uniF110" unicode="&#xf110;" horiz-adv-x="403" 
d="M378 244c34 -55 33 -162 -2 -215c-41 -62 -88 -79 -125 -87l-8 -2l-3 8c-15 41 -25 42 -26 42c-8 0 -20 -24 -26 -45l-2 -9l-9 3c-7 2 -167 49 -176 162c-6 82 49 116 51 117l5 -8v0l9 -3c-5 -12 -8 -28 -4 -36c1 -2 4 -4 10 -5c5 -1 7 0 9 2c8 8 10 32 9 45
c-1 4 -7 33 -14 64c-10 40 31 67 33 68l21 13l-7 -23c-2 -6 -3 -23 4 -32c4 -5 12 -8 23 -7s20 5 26 13c14 18 14 51 9 76c-5 24 -18 39 -24 44v0l-3 3l7 7v9h3l1 -1c11 -3 60 -20 89 -80c21 -45 20 -70 18 -96c-1 -12 -2 -26 0 -42c2 -18 8 -28 17 -29c7 -1 15 4 18 11
c7 20 6 27 4 43c-2 13 -11 30 -14 35l-14 24l26 -11c2 -1 38 -15 65 -58z" />
    <glyph glyph-name="uniF111" unicode="&#xf111;" horiz-adv-x="400" 
d="M376 240c33 -53 33 -161 -2 -214c-37 -55 -78 -76 -124 -86c-14 38 -26 50 -37 50c-22 0 -36 -54 -36 -54s-167 47 -176 160c-6 81 49 114 49 114s-22 -52 14 -57h4c32 0 26 61 26 61s-6 32 -15 68s30 60 30 60s-14 -53 34 -53h4c53 3 53 69 46 105s-31 54 -31 54
s56 -12 88 -79s13 -86 18 -140c3 -29 17 -40 30 -40c11 0 22 7 26 18c9 24 8 34 5 51s-16 39 -16 39s36 -14 63 -57zM357 37c30 46 32 144 2 192l-9 12c0 -12 -1 -22 -7 -40c-7 -19 -25 -32 -45 -32c-21 0 -46 15 -50 58c-2 19 -1 35 0 48c2 25 3 45 -16 85
c-6 12 -12 22 -19 30c3 -22 7 -67 -16 -96c-12 -15 -29 -23 -49 -24c-2 0 -3 -1 -5 -1c-24 0 -38 11 -45 20v1v-4c9 -36 15 -68 15 -68l1 -1v-1c1 -8 3 -49 -16 -70c-8 -9 -19 -13 -31 -13c-2 0 -4 1 -6 1c-18 2 -27 12 -32 20v1c-6 -14 -11 -33 -9 -57
c3 -40 31 -76 82 -107c23 -14 47 -24 62 -30c9 22 24 49 49 49c23 0 39 -23 49 -47c31 9 64 27 95 74z" />
    <glyph glyph-name="uniF112" unicode="&#xf112;" horiz-adv-x="503" 
d="M444 291c33 0 59 -26 59 -59s-26 -59 -59 -59c-15 0 -29 5 -39 14l-219 -219c-21 -21 -48 -32 -77 -32s-56 11 -77 32s-32 48 -32 77s11 56 32 77l148 147c-7 -13 -40 -62 -44 -190c-24 24 -61 60 -61 60l-30 -30c-17 -17 -27 -40 -27 -64s10 -47 27 -64s40 -27 64 -27
s47 10 64 27l220 220c-6 9 -8 20 -8 31c0 23 13 43 33 53c-36 59 -98 143 -131 139c-9 -1 -16 -10 -21 -27c-7 -24 -21 -40 -42 -47c-75 -25 -215 79 -221 83l11 15c1 -1 138 -102 204 -80c15 5 26 16 31 34c7 24 18 38 35 40c26 3 59 -21 101 -76c25 -32 44 -64 51 -75h8z
M444 191c23 0 41 18 41 41s-18 41 -41 41s-41 -18 -41 -41s18 -41 41 -41z" />
    <glyph glyph-name="uniF113" unicode="&#xf113;" horiz-adv-x="507" 
d="M213 239l43 153l200 -200l-154 -43l-212 -213l-90 90zM26 26l64 -64l195 195l-64 64zM421 201l-156 156l-34 -121l69 -69zM181 150c17 0 32 -15 32 -32s-15 -32 -32 -32s-31 15 -31 32s14 32 31 32zM181 105c7 0 14 6 14 13s-7 14 -14 14s-13 -7 -13 -14s6 -13 13 -13z
M343 378l29 70l17 -7l-30 -70zM502 316l5 -18l-65 -20l-6 17zM394 345l72 72l13 -13l-72 -72z" />
    <glyph glyph-name="uniF114" unicode="&#xf114;" 
d="M512 192c0 -38 -30 -68 -68 -68h-24l17 -17c27 -27 27 -69 0 -96c-13 -13 -30 -20 -48 -20s-35 7 -48 20l-17 17v-24c0 -38 -31 -68 -68 -68c-38 0 -68 30 -68 68v24l-17 -17c-13 -13 -30 -20 -48 -20s-35 7 -48 20c-27 27 -27 69 0 96l17 17h-24c-38 0 -68 31 -68 68
s30 68 68 68h24l-17 17c-13 13 -20 30 -20 48s7 35 20 48s30 20 48 20s35 -7 48 -20l17 -17v24c0 38 30 68 68 68c37 0 68 -30 68 -68v-24l17 17c13 13 30 20 48 20s35 -7 48 -20c26 -27 27 -69 0 -96l-17 -17h24c38 0 68 -31 68 -68zM354 360l-42 -42c31 -14 57 -38 71 -69
l41 41c19 19 19 51 0 70c-9 9 -22 14 -35 14s-26 -5 -35 -14zM257 70c67 0 120 54 120 121s-53 120 -120 120s-121 -53 -121 -120s54 -121 121 -121zM256 429c-27 0 -49 -22 -49 -49v-60c16 6 32 10 50 10c17 0 33 -3 48 -9v59c0 27 -22 49 -49 49zM88 290l42 -42
c14 31 39 56 70 70l-42 42c-9 9 -22 14 -35 14s-26 -5 -35 -14s-14 -22 -14 -35s5 -26 14 -35zM68 143h58c-6 15 -8 31 -8 48c0 18 3 34 9 50h-59c-27 0 -49 -22 -49 -49s22 -49 49 -49zM158 24l40 40c-31 14 -55 40 -69 71l-41 -41c-19 -19 -19 -51 0 -70
c9 -9 22 -14 35 -14s26 5 35 14zM256 -45c27 0 49 22 49 49v56c-15 -6 -31 -9 -48 -9c-18 0 -34 4 -50 10v-57c0 -27 22 -49 49 -49zM424 94l-40 40c-14 -31 -39 -56 -70 -70l40 -40c9 -9 22 -14 35 -14s26 5 35 14c19 19 19 51 0 70zM387 143h57c27 0 49 22 49 49
s-22 49 -49 49h-58c6 -16 10 -32 10 -50c0 -17 -3 -33 -9 -48z" />
    <glyph glyph-name="uniF115" unicode="&#xf115;" horiz-adv-x="507" 
d="M507 155c-4 -77 -53 -137 -55 -139l-8 -10c5 -22 8 -45 10 -69l-18 -1c-2 26 -6 51 -11 73c-9 -3 -34 -11 -64 -11c-14 0 -28 2 -41 5c-55 14 -90 58 -91 60l-8 10l11 4c1 0 31 12 69 12c14 0 27 -2 40 -5c33 -9 59 -27 75 -41c-25 75 -68 125 -112 158c1 -4 2 -7 2 -11
c0 -13 -5 -25 -14 -34s-21 -14 -34 -14s-25 5 -34 14l-5 6v-8c0 -26 -22 -48 -48 -48s-48 22 -48 48v8l-5 -6c-9 -9 -21 -14 -34 -14s-25 5 -34 14c-19 19 -19 49 0 68l6 5h-8c-26 0 -48 22 -48 48s22 48 48 48h8l-6 5c-9 9 -14 21 -14 34s5 25 14 34s21 14 34 14
s25 -5 34 -14l5 -6v8c0 26 22 48 48 48s48 -22 48 -48v-8l5 6c9 9 21 14 34 14s25 -5 34 -14s14 -21 14 -34s-5 -25 -14 -34l-6 -5h8c26 0 48 -22 48 -48s-21 -47 -46 -48c42 -28 78 -65 104 -108c-2 13 -3 26 -2 40c4 77 53 137 55 139l8 9l7 -10c2 -3 43 -67 39 -144z
M294 306h-36c3 -9 5 -19 5 -30c0 -10 -2 -19 -5 -28h36c16 0 29 13 29 29s-13 29 -29 29zM99 276c0 -40 33 -73 73 -73s72 33 72 73s-32 73 -72 73s-73 -33 -73 -73zM237 385l-26 -27c18 -9 33 -23 42 -41l26 26c6 6 8 13 8 21s-2 15 -8 21c-11 11 -31 11 -42 0zM171 429
c-16 0 -29 -13 -29 -29v-38c9 3 20 5 30 5s19 -1 28 -4v37c0 16 -13 29 -29 29zM55 364c0 -8 2 -15 8 -21l27 -26c9 18 23 32 41 41l-26 27c-11 11 -31 11 -42 0c-6 -6 -8 -13 -8 -21zM48 248v0h37c-3 9 -5 18 -5 28c0 11 2 21 5 30h-37c-16 0 -29 -13 -29 -29
s13 -29 29 -29zM105 169l25 26c-18 9 -32 24 -41 42l-26 -26c-11 -11 -11 -31 0 -42s31 -11 42 0zM171 125c16 0 29 13 29 29v36c-9 -3 -18 -5 -28 -5s-21 2 -30 5v-36c0 -16 13 -29 29 -29zM279 169c6 6 8 13 8 21s-2 15 -8 21l-26 25c-9 -18 -23 -32 -41 -41l25 -26
c11 -11 31 -11 42 0zM361 17c20 0 37 4 48 7c-13 13 -40 33 -73 42c-11 3 -22 5 -35 5c-20 0 -37 -4 -48 -7c13 -13 39 -34 72 -43c11 -3 23 -4 36 -4zM416 160c-3 -53 19 -100 30 -121c14 20 39 64 42 117s-18 100 -29 121c-14 -20 -40 -64 -43 -117z" />
    <glyph glyph-name="uniF116" unicode="&#xf116;" 
d="M346 274c17 -19 28 -44 30 -71h32v-18h-32c-2 -26 -13 -50 -29 -69l17 -17l-13 -13l-17 17c-19 -16 -43 -27 -69 -29v-30h-18v30c-26 2 -50 13 -69 29l-19 -20l-14 13l20 20c-16 19 -27 43 -29 69h-30v18h30c2 26 13 50 29 69l-23 22l14 13l22 -22c19 16 43 27 69 29v35
h18v-35c26 -2 49 -11 68 -27l21 21l13 -13zM256 92c56 0 102 46 102 102s-46 102 -102 102s-102 -46 -102 -102s46 -102 102 -102zM512 192c0 -37 -35 -62 -84 -71c28 -41 35 -84 9 -110c-11 -11 -25 -16 -41 -16c-18 0 -39 7 -60 19c-11 -57 -43 -78 -80 -78s-62 35 -71 84
c-24 -16 -48 -25 -69 -25c-16 0 -30 5 -41 16c-26 26 -19 69 9 110c-49 9 -84 34 -84 71s35 62 84 71c-28 41 -35 84 -9 110c11 11 25 16 41 16c21 0 45 -9 69 -25c9 49 34 84 71 84s62 -35 71 -84c23 16 48 25 69 25c16 0 30 -5 41 -16c26 -26 19 -69 -9 -110
c49 -9 84 -34 84 -71zM425 139c33 6 69 23 69 53s-36 47 -69 53l-28 5l16 24c19 28 32 65 11 86c-7 7 -16 11 -28 11c-17 0 -37 -8 -58 -22l-24 -16l-5 28c-6 33 -23 69 -53 69s-47 -36 -53 -69l-5 -28l-24 16c-21 14 -41 22 -58 22c-12 0 -21 -4 -28 -11
c-21 -21 -8 -58 11 -86l16 -24l-28 -5c-33 -6 -69 -23 -69 -53s36 -47 69 -53l28 -5l-16 -24c-19 -28 -32 -65 -11 -86c7 -7 16 -11 28 -11c17 0 37 8 58 22l24 16l5 -28c6 -33 23 -69 53 -69c34 0 54 22 62 64l5 25l23 -13c18 -11 35 -17 50 -17c12 0 21 4 28 11
c21 21 8 58 -11 86l-16 24z" />
    <glyph glyph-name="uniF117" unicode="&#xf117;" 
d="M510 198c3 -3 3 -9 0 -12c-2 -2 -55 -57 -122 -62c28 -37 33 -81 33 -83l1 -11l-11 1c-2 0 -50 5 -87 36c-1 -71 -59 -127 -62 -129c-2 -2 -4 -2 -6 -2s-4 0 -6 2s-59 57 -62 127c-37 -29 -83 -35 -85 -35l-11 -1l1 11c0 2 5 47 34 84c-69 4 -123 60 -125 62
c-3 3 -3 9 0 12c2 2 57 59 127 62c-31 38 -37 86 -37 88l-1 11l11 -2c2 0 49 -5 86 -35c4 68 60 122 62 124c3 3 9 3 12 0c2 -2 57 -54 62 -122c37 30 84 35 86 35l10 1l-1 -11c0 -2 -5 -51 -37 -89c70 -2 126 -59 128 -62zM400 339c-17 -4 -50 -13 -74 -37
c-1 -1 -1 -2 -2 -3c-2 -21 -10 -41 -19 -58c15 7 31 14 49 17c3 2 5 5 8 8c24 24 34 56 38 73zM216 194c0 -22 18 -40 40 -40s40 18 40 40s-18 40 -40 40s-40 -18 -40 -40zM256 426c-15 -16 -51 -61 -51 -112c0 -26 10 -50 21 -70c9 5 19 8 30 8s21 -4 30 -9
c11 20 21 45 21 71c0 52 -36 96 -51 112zM185 301c-24 24 -56 33 -73 37c4 -17 13 -50 37 -74c2 -2 4 -3 6 -5c19 -3 37 -10 52 -18c-8 16 -15 36 -18 56zM134 243c-52 0 -96 -36 -112 -51c16 -15 61 -51 112 -51c27 0 53 10 73 22c-6 9 -9 20 -9 31c0 10 3 20 7 28
c-20 11 -45 21 -71 21zM113 50c17 4 49 13 73 37l3 3c3 19 10 37 18 53c-16 -8 -35 -15 -55 -18l-2 -2c-24 -24 -33 -56 -37 -73zM256 -42c15 16 51 61 51 112c0 28 -11 53 -23 74c-8 -5 -18 -7 -28 -7s-20 2 -28 7c-12 -21 -23 -46 -23 -74c0 -52 36 -96 51 -112zM328 88
c24 -24 56 -33 73 -37c-4 17 -13 49 -37 73c-21 2 -42 10 -59 19c7 -14 14 -31 17 -49zM378 141c51 0 96 36 112 51c-16 15 -61 51 -112 51c-27 0 -51 -10 -71 -21c4 -8 7 -18 7 -28c0 -11 -3 -22 -9 -31c20 -12 45 -22 73 -22z" />
    <glyph glyph-name="uniF118" unicode="&#xf118;" 
d="M232 254l-36 131v3c0 34 25 60 58 60c34 0 62 -27 62 -60v-3l-39 -130c-1 -4 -6 -7 -10 -6c-9 1 -15 1 -23 -1c-1 0 -2 -1 -3 -1c-4 0 -8 3 -9 7zM254 430c-22 0 -39 -18 -40 -41l34 -122c5 1 9 1 14 1l36 121c-1 22 -21 41 -44 41zM277 128l39 -129v-3
c0 -33 -28 -60 -62 -60c-33 0 -58 26 -58 60v3l36 130c1 5 6 8 11 7c8 -2 15 -2 24 -1c5 1 9 -3 10 -7zM254 -46c23 0 43 19 44 41l-36 121c-5 0 -9 -1 -14 0l-34 -121c1 -23 18 -41 40 -41zM287 241c-4 3 -5 9 -3 13l66 117c0 1 1 1 2 2c12 12 27 18 43 18
c15 0 30 -6 41 -17s18 -27 18 -43c0 -17 -6 -32 -17 -43c-1 -1 -1 -2 -2 -2l-118 -64c-1 -1 -4 -1 -5 -1c-3 0 -5 2 -7 4c-5 7 -11 12 -18 16zM366 361l-62 -109c4 -3 8 -6 11 -10l110 60c7 8 11 18 11 29s-5 22 -13 30c-7 7 -18 12 -28 12c-11 0 -21 -4 -29 -12zM224 145
c4 -3 5 -8 3 -12l-65 -120c0 -1 -1 -1 -2 -2c-11 -11 -26 -17 -42 -17c-17 0 -32 6 -44 18c-11 11 -17 26 -17 42c0 15 7 31 18 42c1 1 1 2 2 2l119 67c4 2 9 1 12 -3c4 -7 10 -12 16 -17zM146 23l61 112c-3 3 -6 6 -9 10l-111 -63c-8 -8 -12 -18 -12 -28
c0 -11 4 -21 12 -29s19 -13 31 -13c11 0 21 4 28 11zM494 236c11 -11 18 -26 18 -42s-6 -31 -17 -43s-27 -19 -43 -19h-3l-128 38c-4 1 -8 6 -7 11c1 4 1 7 1 11s0 8 -1 13s1 10 6 11l129 36h3c16 0 31 -5 42 -16zM481 163c8 8 13 20 13 31s-4 21 -12 28s-18 12 -29 12
l-120 -33c0 -3 1 -6 1 -9c0 -2 -1 -4 -1 -6l120 -36c11 0 20 5 28 13zM63 132h-3c-16 0 -32 7 -43 19s-17 27 -17 43s7 31 18 42s26 16 42 16h3l132 -37c5 -1 7 -6 6 -11c-1 -4 -1 -8 -1 -12c0 -3 0 -6 1 -10c1 -5 -2 -10 -6 -11zM31 163c8 -8 17 -13 28 -13l123 37v5v8
l-123 34c-11 0 -21 -5 -29 -12s-12 -17 -12 -28s5 -23 13 -31zM435 98c1 0 1 -1 2 -2c11 -11 18 -27 18 -42c0 -16 -6 -31 -17 -42c-12 -12 -27 -18 -44 -18v0c-16 0 -31 6 -42 17c-1 1 -2 1 -2 2l-64 118c-2 4 -1 9 3 12c7 4 13 11 17 18c3 4 8 5 12 3zM425 25
c8 8 12 18 12 29c0 10 -4 20 -12 28l-108 62c-3 -4 -7 -8 -11 -11l60 -110c7 -7 17 -11 28 -11c12 0 23 5 31 13zM77 286c-1 0 -1 1 -2 2c-11 11 -17 26 -17 43c0 16 7 32 18 43s26 17 41 17c16 0 31 -6 43 -18c1 -1 2 -1 2 -2l67 -119c2 -4 1 -9 -3 -12
c-6 -4 -12 -10 -16 -16c-2 -3 -5 -4 -8 -4c-1 0 -3 0 -4 1zM89 361c-8 -8 -13 -19 -13 -30s4 -21 11 -29l113 -61l9 9l-63 111c-8 8 -18 12 -29 12c-10 0 -21 -5 -28 -12z" />
    <glyph glyph-name="uniF119" unicode="&#xf119;" horiz-adv-x="347" 
d="M345 136c2 -2 2 -5 1 -8l-54 -186c-1 -4 -4 -6 -8 -6h-190c-4 0 -8 2 -9 6l-54 186c-1 3 -1 6 1 8s5 3 8 3h156l-20 55c-6 -14 -20 -25 -37 -25c-22 0 -40 18 -40 40v3l-2 -2c-8 -8 -17 -12 -28 -12s-20 4 -28 12s-12 17 -12 28s4 21 12 29l2 2h-3c-22 0 -40 18 -40 40
s18 40 40 40h3l-2 2c-8 8 -12 17 -12 28s4 20 12 28s17 12 28 12s20 -4 28 -12l2 -2v3c0 22 18 40 40 40s40 -18 40 -40v-3l2 2c8 8 18 12 29 12s20 -4 28 -12c16 -16 16 -40 0 -56l-2 -2h3c22 0 40 -18 40 -40s-18 -40 -40 -40h-3l2 -2c8 -8 12 -18 12 -29s-4 -20 -12 -28
s-17 -12 -28 -12c-6 0 -13 1 -18 4l23 -63h123c3 0 5 -1 7 -3zM225 223c4 4 7 9 7 15s-3 12 -7 16l-20 20c-7 -13 -18 -24 -31 -31l20 -20c8 -8 23 -8 31 0zM84 308c0 -31 25 -55 56 -55s55 24 55 55s-24 55 -55 55s-56 -24 -56 -55zM239 331v0h-29c2 -7 3 -15 3 -23
c0 -7 -1 -14 -3 -21h29c12 0 22 10 22 22s-10 22 -22 22zM194 394l-21 -21c13 -7 25 -17 32 -30l20 20c9 9 9 22 0 31c-8 8 -23 8 -31 0zM139 430c-12 0 -22 -10 -22 -22v-30c7 2 15 3 23 3s14 -1 21 -3v30c0 12 -10 22 -22 22zM54 394c-4 -4 -7 -9 -7 -15s3 -12 7 -16
l21 -21c7 13 18 24 31 31l-21 21c-8 8 -23 8 -31 0zM40 287h29c-2 7 -3 14 -3 21c0 8 2 16 4 23h-30c-12 0 -22 -10 -22 -22s10 -22 22 -22zM85 223l20 20c-13 7 -24 19 -31 32l-20 -21c-4 -4 -7 -10 -7 -16s3 -11 7 -15c8 -8 23 -8 31 0zM139 187c12 0 22 10 22 22v29
c-7 -2 -13 -4 -21 -4s-16 2 -23 4v-29c0 -12 10 -22 22 -22zM277 -46l11 39h-199l12 -39h176zM294 11l32 110h-274l32 -110h210z" />
    <glyph glyph-name="uniF11A" unicode="&#xf11a;" 
d="M486 119c20 -12 30 -32 22 -46s-31 -17 -51 -5c-16 9 -25 25 -24 38l-91 52c-8 -9 -16 -18 -25 -27c-133 -133 -297 -188 -299 -189l-18 -6l6 18c1 2 55 161 184 293l-116 67c-11 -5 -27 -4 -41 4c-20 12 -30 33 -22 47s31 16 51 4c17 -10 27 -28 24 -41l117 -68
c132 128 289 181 291 182l18 6l-6 -18c0 -1 -45 -133 -151 -257l87 -51c11 7 28 6 44 -3zM481 417c-45 -18 -160 -70 -261 -166l118 -69c81 94 127 194 143 235zM303 145c8 8 15 15 22 23l-119 69c-102 -103 -157 -224 -175 -270c46 19 169 75 272 178z" />
    <glyph glyph-name="uniF11B" unicode="&#xf11b;" horiz-adv-x="483" 
d="M350 248c15 0 27 -11 27 -26s-12 -27 -27 -27s-27 12 -27 27s12 26 27 26zM306 123c15 0 26 -12 26 -27s-11 -27 -26 -27s-27 12 -27 27s12 27 27 27zM213 186c0 15 12 27 27 27s27 -12 27 -27s-12 -27 -27 -27s-27 12 -27 27zM171 123c15 0 27 -12 27 -27
s-12 -27 -27 -27s-27 12 -27 27s12 27 27 27zM153 222c0 -15 -12 -27 -27 -27s-27 12 -27 27s12 26 27 26s27 -11 27 -26zM231 -44v203h9h9v-203h-18zM483 183v0h-32c-1 -52 -15 -100 -40 -142l27 -27l-12 -13l-25 25c-40 -57 -98 -90 -160 -90h-1c-61 0 -118 32 -158 87
l-21 -22l-13 13l24 24c-27 43 -41 95 -42 149h-30v18h30c1 37 9 73 24 106c5 12 11 24 18 35l-28 28l13 13l26 -26c15 20 32 38 51 52c32 23 69 35 107 35c35 0 70 -10 101 -31c21 -14 40 -33 56 -55l24 25l13 -13l-27 -27c7 -11 13 -23 19 -36c15 -34 23 -72 24 -110h32
v-18zM332 401v-3l1 3h-1zM323 407c-26 15 -53 23 -82 23s-57 -8 -83 -23h165zM392 45c27 42 42 93 42 147c0 39 -8 78 -23 112v-9h-162v-82h-9h-9v82h-161v8c-14 -33 -22 -69 -22 -107v-4c0 -55 15 -108 43 -150c37 -56 91 -88 149 -88l1 -9v9c59 0 114 33 151 91z" />
    <glyph glyph-name="uniF11C" unicode="&#xf11c;" horiz-adv-x="440" 
d="M386 328c30 0 54 -24 54 -54v-244c0 -30 -24 -54 -54 -54h-2c4 -9 7 -19 9 -29l2 -11h-344l2 11c2 10 5 20 9 29h-8c-30 0 -54 24 -54 54v244c0 30 24 54 54 54h68v38h44v21h-25l1 10c6 51 60 51 78 51s72 0 78 -51l1 -10h-25v-21h44v-38h68zM313 54
c57 68 34 125 -13 216h-164c-47 -91 -70 -148 -13 -216h91v67c-20 4 -36 22 -36 44c0 25 20 45 45 45s45 -20 45 -45c0 -22 -16 -40 -36 -44v-67h81zM162 404h13h9h72h9h13c-5 13 -18 26 -58 26s-53 -13 -58 -26zM256 366v21h-72v-21h72zM140 348v-60h160v60h-35h-9h-72h-9
h-35zM18 30c0 -20 16 -36 36 -36h16c10 20 22 37 36 52c-60 75 -34 139 16 235v29h-68c-20 0 -36 -16 -36 -36v-244zM74 -46h298c-4 12 -8 25 -14 36c-9 18 -21 33 -34 46h-202c-17 -17 -32 -38 -42 -64zM422 30v0v244c0 20 -16 36 -36 36h-68v-36c46 -90 69 -152 16 -223
c16 -14 29 -32 40 -53c1 -1 1 -3 2 -4h10c20 0 36 16 36 36z" />
    <glyph glyph-name="uniF11D" unicode="&#xf11d;" horiz-adv-x="503" 
d="M428 448v0v0zM498 444c0 0 33 -218 -82 -333c-55 -55 -102 -77 -144 -77c-46 0 -85 26 -121 62l-3 3c-76 -59 -139 -110 -128 -159l-18 -4c-13 60 53 115 133 177c-58 66 -76 142 30 248c73 73 189 87 263 87v0v-19c-63 0 -179 -10 -250 -81c-50 -50 -72 -93 -70 -135
c1 -29 15 -58 42 -89c64 49 136 105 176 169l15 -9c-41 -66 -113 -123 -178 -173l1 -2c39 -39 73 -56 108 -56c40 0 83 23 131 71c91 91 84 254 79 303c-12 1 -31 2 -54 2v0v19c42 0 70 -4 70 -4z" />
    <glyph glyph-name="uniF11E" unicode="&#xf11e;" horiz-adv-x="509" 
d="M509 438c0 -1 3 -88 -15 -178c-19 -99 -88 -119 -143 -119c-49 0 -96 16 -114 23c4 -20 9 -56 13 -94c10 -105 -6 -127 -20 -134l-9 16c14 8 22 76 -1 204c-18 -14 -54 -40 -93 -40v0c-32 0 -58 17 -77 50c-30 50 -46 101 -47 103l-3 10l10 2c1 0 32 5 73 5
c14 0 27 -1 40 -2c40 -4 70 -18 89 -41c1 14 3 29 8 44c16 44 53 80 109 106c84 39 166 52 169 53l10 2zM127 135v0c35 0 70 25 85 37c-1 14 -29 31 -106 31v18c51 0 87 -7 107 -21c-3 10 -7 22 -15 32c-16 20 -42 31 -77 34c-12 1 -25 2 -38 2c-25 0 -47 -2 -59 -4
c6 -17 20 -53 41 -89c16 -27 37 -40 62 -40zM476 264c14 70 15 137 15 162c-25 -5 -90 -20 -154 -50c-52 -24 -85 -56 -99 -95c-11 -32 -8 -62 -3 -81c25 45 52 58 84 73c24 11 49 22 77 49l13 -13c-30 -29 -58 -42 -82 -53c-32 -15 -58 -27 -81 -75c18 -7 61 -22 105 -22
c69 0 111 35 125 105z" />
    <glyph glyph-name="uniF11F" unicode="&#xf11f;" 
d="M512 255c0 0 -5 -109 -76 -180c-61 -61 -150 -73 -174 -75v-61h-18v61c-30 4 -111 18 -168 75c-71 71 -76 180 -76 180s97 -5 167 -64c-1 11 -3 23 -3 34c0 123 91 223 91 223s91 -100 91 -223c0 -12 -1 -24 -3 -36c70 61 169 66 169 66zM255 419
c-24 -33 -72 -108 -72 -194c0 -75 36 -142 61 -179v303h19v-308c25 37 64 106 64 184c0 86 -48 162 -72 194zM255 2v-1h2v2c-1 -1 -2 -1 -2 -1zM21 234c5 -34 22 -100 68 -146c41 -41 97 -59 133 -66l-151 149l13 13l135 -133c-17 28 -37 66 -47 109c-2 2 -3 4 -5 6
c-47 47 -112 63 -146 68zM293 23c36 8 90 25 130 65c46 46 63 112 68 146c-34 -5 -100 -22 -146 -68c-3 -3 -5 -6 -8 -9c-12 -48 -35 -88 -53 -116l143 143l13 -13z" />
    <glyph glyph-name="uniF120" unicode="&#xf120;" horiz-adv-x="511" 
d="M387 67l11 -57l-132 29v-103h-18v103l-135 -29l15 51l-128 107l42 27l-32 74l76 -21l17 54l71 -72l-28 149l63 -33l44 102l45 -102l62 35l-22 -146l73 68l19 -54l67 22l-27 -78l41 -25zM369 64l-2 11l8 7l104 84l-19 11l-13 8l5 14l15 43l-31 -10l-17 -6l-6 17l-10 28
l-53 -49l-38 -36l8 52l16 108l-29 -16l-18 -10l-8 19l-28 63l-28 -63l-8 -19l-17 10l-29 15l21 -111l11 -60l-42 43l-50 51l-8 -26l-5 -17l-17 5l-39 11l17 -39l6 -14l-13 -9l-21 -13l109 -91l10 -7l-4 -12l-7 -21l113 24l4 1l4 -1l114 -25z" />
    <glyph glyph-name="uniF121" unicode="&#xf121;" 
d="M256 448c141 0 256 -115 256 -256s-115 -256 -256 -256s-256 115 -256 256s115 256 256 256zM366 124l77 -76c31 40 49 90 49 144c0 55 -18 106 -50 146l-76 -77c13 -20 20 -44 20 -69s-8 -48 -20 -68zM147 192c0 -60 49 -109 109 -109s110 49 110 109s-50 110 -110 110
s-109 -50 -109 -110zM399 379c-40 31 -89 49 -143 49s-104 -18 -144 -49l77 -77c20 12 42 20 67 20c24 0 48 -7 67 -19zM70 337c-31 -40 -50 -90 -50 -145c0 -54 18 -104 49 -144l77 77c-12 20 -19 42 -19 67s7 48 19 68zM111 6c40 -31 90 -50 145 -50s105 19 145 50l-77 76
c-20 -12 -43 -19 -68 -19s-48 8 -68 20z" />
    <glyph glyph-name="uniF122" unicode="&#xf122;" 
d="M476 191l23 -39s10 -15 0 -38l-46 -81s-11 -15 -30 -16h-30v-28l-37 64l36 65l1 -27h45c4 0 7 3 6 7l-41 72l62 37c17 26 29 54 29 82c0 75 -59 141 -125 141c-35 0 -69 -19 -100 -53l-12 -13l-13 12c-38 34 -76 52 -111 52c-31 0 -61 -14 -82 -41
c-21 -26 -33 -62 -33 -98c0 -71 77 -139 144 -199c39 -34 75 -65 95 -96c5 7 10 15 17 23c-5 0 -19 1 -31 18l-45 81s-8 17 1 34l15 27l-24 14h73l37 -64l-23 13l-22 -40c-2 -4 -1 -7 3 -8h81l1 -75h-41c-25 -26 -42 -50 -43 -73c0 89 -256 202 -256 345
c0 81 54 157 133 157c37 0 78 -16 123 -56c37 41 76 58 113 58c78 0 143 -76 143 -159c0 -35 -14 -67 -36 -98zM428 205l-74 -1l23 13l-23 41c-2 4 -7 4 -9 1l-41 -72l-63 37l31 57s8 16 32 19h92s18 -2 28 -19l16 -26l24 14z" />
    <glyph glyph-name="uniF123" unicode="&#xf123;" 
d="M512 146l-16 -9l-101 175l-22 -30l-39 36l-27 -37l-30 31l-41 -70l33 -39l-14 -11l-29 34v0l-25 30l-27 -29l-33 31l-30 -34l-19 34l-77 -121l-15 9l138 219l85 -108l114 191zM173 252l17 19l-51 63l-37 -59v0l12 -20l26 28zM371 309l14 20l-48 83l-50 -84l18 -19l27 35z
" />
    <glyph glyph-name="uniF124" unicode="&#xf124;" horiz-adv-x="423" 
d="M423 142h-184l13 -206h-83l11 206h-180c8 110 99 306 211 306s204 -196 212 -306zM211 430c-88 0 -173 -158 -190 -270h381c-17 112 -103 270 -191 270zM232 -46l-12 188h-22l-9 -188h43zM94 289c0 19 9 28 28 28s29 -9 29 -28s-10 -29 -29 -29s-28 10 -28 29zM196 361
c0 27 13 40 40 40s40 -13 40 -40s-13 -40 -40 -40s-40 13 -40 40zM75 198c0 9 4 12 13 12s13 -3 13 -12s-4 -13 -13 -13s-13 4 -13 13zM322 243c0 9 3 12 12 12s13 -3 13 -12s-4 -13 -13 -13s-12 4 -12 13zM180 236c0 38 19 57 57 57s56 -19 56 -57s-18 -56 -56 -56
s-57 18 -57 56z" />
    <glyph glyph-name="uniF125" unicode="&#xf125;" horiz-adv-x="431" 
d="M431 -52c1 -3 0 -6 -3 -9c-2 -2 -4 -3 -6 -3c-1 0 -2 0 -3 1l-203 91l-203 -91c-3 -2 -7 -1 -10 2s-3 7 -2 10l207 493c1 3 4 6 8 6s7 -3 8 -6l9 -21l-8 -3v0l8 3zM26 -37l186 83c1 1 3 1 4 1v368z" />
    <glyph glyph-name="uniF126" unicode="&#xf126;" 
d="M512 344v-19h-89l56 -135l-17 -7l-59 142h-296l-57 -142l-18 7l55 135h-87v19h94l35 85h-89v19h426v-19h-86l35 -85h97zM114 344h281l-36 85h-210z" />
    <glyph glyph-name="uniF127" unicode="&#xf127;" horiz-adv-x="389" 
d="M389 132c0 0 2 -90 -52 -144c-48 -48 -123 -52 -140 -52v0h-2v0h-1h-1v0c-17 0 -93 4 -141 52c-54 54 -52 144 -52 144s0 1 1 1c6 0 33 -1 63 -9c-49 49 -47 130 -47 130h2c8 0 49 -1 89 -19c-4 3 -8 6 -11 9c-38 38 -36 101 -36 101h1c8 0 65 -2 100 -37
c20 -19 29 -45 33 -66c4 21 13 47 32 66c35 35 92 37 100 37h1s2 -63 -36 -101c-3 -3 -5 -5 -8 -7c38 17 77 17 85 17h1s2 -82 -47 -131c31 9 59 10 65 10c1 0 1 -1 1 -1zM310 136c30 30 39 74 41 99c-25 -3 -69 -11 -99 -41s-39 -74 -41 -99c25 3 69 11 99 41zM240 295
c-20 -20 -26 -49 -29 -68c19 3 48 10 68 30s27 49 30 68c-19 -3 -49 -10 -69 -30zM81 325c3 -19 9 -48 29 -68s50 -27 69 -30c-3 19 -10 48 -30 68s-49 27 -68 30zM191 208c-12 1 -35 3 -59 13c6 -4 12 -9 17 -14c31 -31 41 -74 45 -102c4 28 14 71 45 102c5 5 10 8 15 12
c-22 -9 -45 -10 -56 -11v-1h-1h-2h-3h-1v1zM136 194c-30 30 -74 38 -99 41c3 -25 10 -69 40 -99s75 -38 100 -41c-3 25 -11 69 -41 99zM192 76c-8 0 -27 1 -50 6l2 -2c35 -35 47 -84 51 -115c4 31 15 80 50 115l3 3c-23 -6 -44 -7 -52 -7v0h-1h-1h-1h-1v0zM65 1
c34 -34 85 -43 112 -46c-3 27 -11 79 -45 113s-86 42 -113 45c3 -27 12 -78 46 -112zM212 -45c27 3 78 12 112 46s44 85 46 112c-27 -3 -78 -11 -112 -45s-43 -86 -46 -113zM195 285c0 0 -39 36 -39 81s39 82 39 82s38 -37 38 -82s-38 -81 -38 -81zM195 420
c-9 -13 -20 -33 -20 -54s11 -40 20 -53c9 13 20 32 20 53s-11 41 -20 54z" />
    <glyph glyph-name="uniF128" unicode="&#xf128;" horiz-adv-x="327" 
d="M316 233c17 -26 15 -61 -8 -84l-194 -193c-13 -13 -29 -20 -47 -20s-34 7 -47 20s-20 29 -20 47s7 34 20 47l168 169c-12 12 -25 22 -38 33c-56 47 -115 97 -107 188c0 3 2 5 4 7s5 2 8 1c161 -54 257 -208 261 -215v0zM161 266c13 -11 27 -23 40 -35l12 13
c13 13 30 19 48 19c4 0 8 0 12 -1c-38 48 -112 126 -212 164c-1 -74 48 -116 100 -160zM295 162c18 18 19 48 1 67l-1 2c-9 9 -21 14 -34 14s-26 -5 -35 -14l-194 -194c-9 -9 -14 -21 -14 -34s5 -26 14 -35s22 -14 35 -14s25 5 34 14zM199 318l-11 -14l-59 50l11 14z
M163 127c14 0 26 -13 26 -27s-12 -26 -26 -26s-26 12 -26 26s12 27 26 27zM163 92c5 0 8 3 8 8c0 4 -3 8 -8 8c-4 0 -8 -4 -8 -8c0 -5 4 -8 8 -8z" />
    <glyph glyph-name="uniF129" unicode="&#xf129;" 
d="M512 155l-33 -25c-2 -2 -41 -31 -100 -46c24 -14 39 -28 40 -29l29 -29l-41 -2h-8c-31 0 -68 6 -100 17c-17 6 -29 11 -38 16c4 -52 39 -86 51 -86v-18c-23 0 -63 41 -68 102c-28 -14 -71 -31 -126 -31h-9l-41 2l29 29c1 1 15 15 39 29c-60 15 -101 44 -103 46l-33 25
l41 7c19 3 39 4 58 4c15 0 30 -1 45 -3c-56 61 -75 128 -76 132l-11 39l36 -18c44 -22 82 -51 114 -85c0 60 11 120 34 179l14 38l18 -36c2 -4 38 -79 39 -179c32 33 70 61 113 83l36 18l-11 -39c-1 -3 -21 -70 -76 -131c13 2 26 2 39 2c19 0 39 -1 58 -4z" />
    <glyph glyph-name="uniF12A" unicode="&#xf12a;" 
d="M512 155l-33 -25c-2 -2 -41 -31 -100 -46c24 -14 39 -28 40 -29l29 -29l-41 -1c-3 0 -5 -1 -8 -1c-31 0 -68 6 -100 17c-17 6 -29 11 -37 16c4 -52 38 -86 50 -86v-18c-23 0 -63 41 -68 102c-28 -14 -71 -31 -126 -31c-3 0 -6 1 -9 1l-41 1l29 29c1 1 15 15 39 29
c-60 15 -101 44 -103 46l-33 25l41 7c19 3 39 5 58 5c15 0 30 -1 45 -3c-56 61 -75 127 -76 131l-11 39l36 -18c44 -22 82 -51 114 -85c0 60 12 120 34 179l14 38l18 -36c2 -4 38 -79 39 -179c32 33 70 61 113 83l36 18l-11 -39c-1 -3 -21 -70 -76 -131c13 2 26 3 39 3
c19 0 39 -2 58 -5zM313 93c89 1 155 51 155 51c-19 3 -38 5 -55 5c-41 0 -75 -8 -102 -17c92 65 122 168 122 168c-69 -35 -114 -81 -142 -120c16 123 -34 224 -34 224c-34 -89 -35 -169 -28 -228c-28 40 -73 88 -144 124c0 0 31 -107 127 -172c-28 11 -67 21 -113 21
c-17 0 -36 -2 -55 -5c0 0 68 -51 158 -51h1c-57 -15 -93 -51 -93 -51h8c64 0 114 25 140 42c3 -14 75 -42 141 -42h7c0 0 -36 36 -93 51z" />
    <glyph glyph-name="uniF12B" unicode="&#xf12b;" 
d="M498 -15c6 -4 10 -6 14 -6v-19c-10 0 -17 5 -24 10c-9 6 -18 11 -34 11s-26 -6 -36 -11c-9 -5 -18 -9 -29 -9c-12 0 -23 5 -34 10c-10 5 -21 10 -31 10s-21 -5 -32 -10c-12 -5 -23 -11 -36 -11c-12 0 -24 6 -36 11s-24 10 -36 10c-13 0 -23 -6 -34 -11
c-10 -5 -19 -10 -30 -10s-19 5 -27 10l-12 6h-1c-4 0 -10 1 -17 5h-4c-15 0 -23 -5 -32 -11c-8 -5 -16 -10 -27 -10v19c6 0 10 2 17 7c8 5 16 11 30 13c-6 13 -8 31 -5 55l1 9h8c12 0 76 3 149 7v38l-125 -5l131 345l273 -328l-261 -11v-38c33 2 67 4 99 6
c101 6 164 10 172 10h14l-6 -14c-17 -37 -31 -59 -41 -73c21 0 33 -9 42 -15zM218 128l223 9l-223 267v-276zM102 123l98 4v252zM410 -13c5 2 10 5 16 7v0c1 0 16 8 48 73c-28 -1 -91 -4 -156 -8c-105 -6 -223 -14 -259 -15c-2 -21 1 -37 9 -44c1 0 1 -1 2 -1
c14 -2 25 -8 33 -13c7 -4 12 -7 17 -7c6 0 14 4 22 8c12 6 25 13 42 13c16 0 31 -6 44 -12c10 -5 20 -9 28 -9c9 0 19 4 29 9c12 6 25 12 39 12s27 -7 39 -12c9 -4 18 -8 26 -8c7 0 13 3 21 7z" />
    <glyph glyph-name="uniF12C" unicode="&#xf12c;" 
d="M462 201h50v-18h-50c-2 -50 -22 -95 -54 -130l35 -36l-12 -12l-36 35c-35 -32 -80 -53 -130 -55v-49h-18v49c-50 2 -96 22 -131 54l-35 -34l-12 12l34 35c-32 35 -52 81 -54 131h-49v18h49c2 50 22 96 54 131l-34 35l12 12l35 -34c35 32 81 52 131 54v49h18v-49
c50 -2 95 -23 130 -55l36 35l12 -12l-35 -35c32 -35 52 -81 54 -131zM444 201c-2 45 -20 87 -49 118l-50 -51c16 -18 25 -41 27 -67h72zM302 192c0 25 -21 46 -46 46s-46 -21 -46 -46s21 -46 46 -46s46 21 46 46zM383 331c-31 29 -73 48 -118 50v-72c26 -2 49 -12 67 -28z
M247 381c-45 -2 -86 -20 -118 -49l51 -51c18 16 41 26 67 28v72zM116 319c-29 -31 -47 -73 -49 -118h72c2 26 12 49 28 67zM67 183c2 -45 20 -86 49 -118l51 51c-16 18 -26 42 -28 67h-72zM129 52c32 -29 73 -47 118 -49v73c-25 2 -49 12 -67 28zM265 3c45 2 87 20 118 49
l-51 52c-18 -16 -42 -26 -67 -28v-73zM395 65c29 32 47 73 49 118h-72c-2 -25 -12 -49 -28 -67z" />
    <glyph glyph-name="uniF12D" unicode="&#xf12d;" 
d="M232 137c82 27 176 56 280 13l-7 -16c-98 41 -188 11 -268 -15c-45 -15 -88 -28 -130 -28c-38 0 -74 11 -107 44l13 13c62 -62 135 -38 219 -11zM232 64c82 27 176 57 280 14l-7 -17c-98 41 -188 12 -268 -14c-45 -15 -88 -29 -130 -29c-38 0 -74 12 -107 45l13 13
c62 -62 135 -39 219 -12zM237 192c-45 -15 -88 -29 -130 -29c-38 0 -74 12 -107 45l13 13c62 -62 135 -39 219 -12c82 27 176 57 280 14l-7 -17c-98 41 -188 12 -268 -14zM202 408l-137 -62l-8 5l153 97l123 -166l-215 -39l134 72zM337 355c0 44 22 66 66 66s66 -22 66 -66
s-22 -67 -66 -67s-66 23 -66 67z" />
    <glyph glyph-name="uniF12E" unicode="&#xf12e;" horiz-adv-x="501" 
d="M501 314l-34 -104l-3 1v0l-201 66l-2 -7v-31c23 -4 40 -23 40 -47c0 -11 -4 -22 -10 -30l87 -219l-18 -7l-54 138v-2h-106l-50 -136l-17 6l81 220c-6 8 -11 19 -11 30c0 24 18 43 40 47v26l-156 52l-6 -18l-81 27l40 122l81 -27l-5 -18l171 -56l-5 -15l184 -64l18 52z
M69 322l29 87l-46 16l-29 -87zM110 386l-17 -52l153 -51l17 52zM207 91h92l-23 58c-7 -4 -15 -6 -24 -6s-17 2 -24 6zM282 192c0 17 -13 30 -30 30s-30 -13 -30 -30s13 -31 30 -31s30 14 30 31zM276 314l-7 -20l184 -60l5 17z" />
    <glyph glyph-name="uniF12F" unicode="&#xf12f;" horiz-adv-x="504" 
d="M478 -46h26v-18h-504v18h25l216 405l-43 80l17 9l37 -70l37 70l16 -9l-43 -80zM252 339l-206 -385h91l114 222l116 -222h91zM346 -46l-95 182l-93 -182h188z" />
    <glyph glyph-name="uniF130" unicode="&#xf130;" 
d="M457 448c30 0 55 -25 55 -55v-186c0 -30 -25 -55 -55 -55h-72c-1 -36 -30 -65 -66 -65s-65 29 -66 65h-119h-63h-53v-20h-18v20v16v2h71v223c0 30 25 55 55 55h331zM220 170v195h-74v-195h74zM319 105c26 0 48 22 48 48s-22 48 -48 48s-48 -22 -48 -48s22 -48 48 -48z
M494 207v0v186c0 20 -17 37 -37 37h-331c-20 0 -36 -17 -36 -37v-223h38v214h110v-214h17c8 28 33 49 64 49s56 -21 64 -49h74c20 0 37 17 37 37zM270 273v111h182v-111h-182zM288 365v-74h146v74h-146z" />
    <glyph glyph-name="uniF131" unicode="&#xf131;" 
d="M452 276c36 -22 60 -62 60 -107c0 -69 -56 -125 -125 -125c-37 0 -70 16 -93 41c-2 -1 -4 -1 -6 -1l12 -142h-81l12 141c-4 1 -8 1 -12 2c-23 -23 -54 -38 -90 -38c-71 0 -129 58 -129 129c0 39 17 74 45 98c-3 8 -5 17 -5 26c0 38 31 69 69 69c11 0 22 -3 31 -8
c22 51 72 87 131 87c50 0 93 -26 119 -64c39 -4 69 -36 69 -76c0 -12 -2 -22 -7 -32zM387 62c59 0 107 48 107 107c0 38 -20 71 -52 91l-14 9l7 15c4 8 6 16 6 24c0 30 -23 55 -53 58l-8 1l-5 7c-23 35 -62 56 -104 56c-50 0 -94 -30 -114 -76l-8 -18l-17 9
c-7 4 -15 5 -23 5c-28 0 -50 -22 -50 -50c0 -6 1 -13 3 -19l5 -13l-10 -8c-25 -21 -39 -52 -39 -84c0 -61 50 -110 111 -110c29 0 57 11 78 32l7 8l10 -3c11 -3 22 -5 33 -5s21 2 32 5l11 3l8 -9c20 -22 49 -35 79 -35z" />
    <glyph glyph-name="uniF132" unicode="&#xf132;" horiz-adv-x="451" 
d="M412 258c24 -19 39 -47 39 -78c0 -57 -37 -98 -89 -98c-12 0 -36 11 -46 16c-11 -6 -44 -21 -82 -23v-139h-17v139c-39 3 -72 21 -83 28c-11 -4 -32 -12 -40 -12c-57 0 -94 45 -94 113c0 45 27 87 69 104c16 82 86 140 170 140c96 0 174 -78 174 -174c0 -5 0 -10 -1 -16z
M362 100c42 0 71 33 71 80c0 27 -13 52 -35 67l-5 3l1 5c1 7 1 13 1 19c0 86 -70 156 -156 156c-77 0 -141 -54 -153 -130l-1 -6l-5 -1c-37 -14 -62 -49 -62 -89c0 -46 20 -95 76 -95c4 0 23 6 38 12l5 1l3 -2s36 -24 77 -27v30l-81 54l9 15l72 -47v44l-81 54l9 15l72 -47
v66h17v-65l71 47l10 -15l-81 -54v-44l71 47l10 -15l-81 -54v-31c42 3 77 23 77 23l5 2l4 -2c13 -7 35 -16 42 -16z" />
    <glyph glyph-name="uniF133" unicode="&#xf133;" horiz-adv-x="370" 
d="M370 6h-175v-70h-19v70h-176l185 442zM28 25h148v52l-58 48l12 14l46 -37v45l-49 47l13 14l36 -35v74h19v-75l45 37l12 -15l-57 -47v-45l45 38l12 -15l-57 -47v-53h146l-156 374z" />
    <glyph glyph-name="uniF134" unicode="&#xf134;" 
d="M427 344l7 -7s35 -34 78 -34v-19c-39 0 -70 23 -84 34c-13 -12 -42 -34 -88 -34c-45 0 -73 21 -85 33c-13 -12 -43 -33 -86 -33c-45 0 -75 23 -87 34c-15 -11 -51 -34 -82 -34v18c33 0 77 36 77 36l7 6l6 -7s30 -34 79 -34c50 0 80 34 80 34l7 9l7 -10
c1 -1 26 -33 77 -33c52 0 80 33 80 33zM434 440c0 0 35 -35 78 -35v-19c-39 0 -70 23 -84 34c-13 -12 -42 -34 -88 -34c-45 0 -73 22 -85 34c-13 -12 -43 -34 -86 -34c-45 0 -75 24 -87 35c-15 -11 -51 -35 -82 -35v19c33 0 77 35 77 35l7 6l6 -7s30 -34 79 -34
c50 0 80 34 80 34l7 9l7 -9c1 -1 26 -34 77 -34c52 0 80 34 80 34l7 8zM427 251l7 -7s35 -34 78 -34v-19c-39 0 -70 23 -84 34c-13 -12 -42 -34 -88 -34c-45 0 -73 21 -85 33c-13 -12 -43 -33 -86 -33c-45 0 -75 23 -87 34c-15 -11 -51 -34 -82 -34v18c33 0 77 36 77 36l7 5
l6 -7s30 -33 79 -33c50 0 80 34 80 34l7 8l7 -9c1 -1 26 -33 77 -33c52 0 80 33 80 33zM427 149l7 -7s35 -35 78 -35v-19c-39 0 -70 23 -84 34c-13 -12 -42 -34 -88 -34c-45 0 -73 22 -85 34c-13 -12 -43 -34 -86 -34c-45 0 -75 24 -87 35c-15 -11 -51 -35 -82 -35v19
c33 0 77 35 77 35l7 6l6 -7s30 -34 79 -34c50 0 80 34 80 34l7 9l7 -9c1 -1 26 -34 77 -34c52 0 80 34 80 34z" />
    <glyph glyph-name="uniF135" unicode="&#xf135;" horiz-adv-x="511" 
d="M511 192c0 -138 -109 -250 -246 -255c-1 0 -3 -1 -3 -1v1h-6h-3v-1s-1 1 -2 1c-139 2 -251 115 -251 255c0 141 115 256 256 256s255 -115 255 -256zM19 182c1 -35 11 -67 26 -97c12 -3 40 -9 77 -15c-12 31 -20 67 -21 112h-82zM44 296l-1 2c-15 -29 -23 -62 -24 -97h82
c1 45 9 82 20 112c-47 -8 -76 -17 -77 -17zM493 201c-1 35 -10 68 -25 97c-12 3 -38 9 -73 14c12 -30 19 -67 20 -111h78zM396 201c-1 47 -9 84 -22 114c-31 4 -69 7 -108 8v-122h130zM266 342c35 0 69 -3 98 -7c-31 58 -77 82 -98 90v-83zM248 342v82
c-21 -9 -65 -32 -96 -88c28 3 61 6 96 6zM248 323c-40 0 -75 -3 -106 -7c-13 -30 -22 -68 -23 -115h129v122zM119 182c1 -47 11 -85 24 -115c32 -4 68 -8 105 -8v123h-129zM248 40c-33 0 -66 3 -95 7c31 -56 75 -80 95 -89v82zM266 40v-83c20 8 66 32 98 90
c-29 -4 -63 -7 -98 -7zM266 59c39 1 76 4 107 8c13 30 22 68 23 115h-130v-123zM415 182c-1 -45 -9 -81 -21 -111c41 7 69 14 74 15c15 29 24 61 25 96h-78zM455 320c-33 52 -86 90 -148 104c26 -17 57 -45 79 -91c29 -4 53 -9 69 -13zM210 425c-65 -13 -121 -53 -155 -107
c15 4 42 10 75 15c14 29 31 51 47 66c11 11 23 19 33 26zM57 63c34 -51 87 -90 149 -103c-25 17 -54 46 -76 90c-30 4 -56 9 -73 13zM313 -38c59 15 110 52 142 102c-15 -4 -39 -9 -69 -14c-14 -29 -31 -50 -47 -65c-9 -9 -17 -17 -26 -23z" />
  </font>
</defs>
</svg>
